#TITLE:Shinsekai;
#SUBTITLE:Skill Burst;
#ARTIST:Shiraishi;
#TITLETRANSLIT:;
#SUBTITLETRANSLIT:;
#ARTISTTRANSLIT:;
#CREDIT:;
#BANNER:bn.png;
#BACKGROUND:bg.png;
#LYRICSPATH:;
#CDTITLE:SDO.png;
#MUSIC:shinsekai.mp3;
#OFFSET:0.000;
#SAMPLESTART:31.175;
#SAMPLELENGTH:12.000;
#SELECTABLE:YES;
#BPMS:0.000=180.000,4.000=193.020;
#STOPS:;
#BGCHANGES:;
// cache tags:
#FIRSTBEAT:4.000;
#LASTBEAT:300.000;
#SONGFILENAME:Songs/Super Dancer Online/Shinsekai/shinsekai.sm;
#HASMUSIC:1;
#HASBANNER:1;
#MUSICLENGTH:95.059;
// end cache tags

//---------------dance-single - Blank----------------
#NOTES:
     dance-single:
     Blank:
     Challenge:
     31:
     1.000,1.000,1.000,0.494,1.000,1034.000,366.000,47.000,0.000,150.000:

0000
0000
0000
0000
,
1101
2000
0200
0020
0000
3330
2020
3030
,
0202
0000
0303
2220
0000
0000
0000
3330
,
2022
0000
0000
3033
1010
0101
0011
1100
,
2220
0000
3330
0202
0000
0303
1010
0000
,
0222
0000
0000
0000
0000
0333
0010
0100
,
2022
0000
0000
0000
0000
0000
0000
3033
,
0000
0000
1101
0000
0000
0111
0000
0000
,
1101
0010
0100
1000
0111
1000
0010
0001
1100
0001
0010
1000
0111
0010
0100
0001
,
1010
0001
0010
0100
1010
0001
0110
1000
0101
0010
0100
1000
1101
0010
0100
0001
,
1010
0001
0100
0001
1110
0001
1010
0001
1010
0001
0100
0001
1010
0100
0010
0001
,
1010
0100
0010
1000
0101
1000
0010
1000
0101
0010
0001
1010
1101
0010
1100
1000
,
1011
0100
0002
0010
1100
0010
0100
1000
0110
0000
1000
0010
1100
0010
1003
0100
,
1001
0010
1000
0100
1011
0100
1000
0010
1001
0100
0010
0001
1110
0100
0010
0001
,
2100
0010
0100
0001
0110
0001
0100
0001
0010
0101
0010
0001
0110
0001
3010
0100
,
1001
0010
0100
0001
1011
0100
1000
0100
1010
0001
0010
1100
1011
0100
0011
0100
,
1101
0010
0100
1000
0111
1000
0100
0010
1001
0100
0010
0001
1110
0001
0100
0000
,
1001
0100
0011
0100
1001
0010
0001
0100
1010
0100
0001
0010
1101
0010
0001
0100
,
1010
0101
0010
1000
1101
0010
1001
0100
0011
1100
0001
0100
1010
0100
0001
0010
,
1001
0010
1001
0100
1001
0100
1001
0010
1100
0011
1100
0011
1100
0011
1100
0011
,
2100
0010
0001
0100
0001
0100
3001
0010
2001
0100
0010
0100
0001
0100
3001
0010
,
2001
0100
0010
0100
0001
3010
0100
1000
0001
0010
0100
1000
0001
0010
1001
0110
,
1111
0010
1100
0001
0110
1000
0010
0100
1110
0001
0110
1000
0111
0010
1001
0010
,
1100
0011
1100
0011
1100
0011
1100
0011
1100
0011
1100
0011
1100
0011
1100
0011
,
2110
0001
0100
0010
0001
0100
0001
3010
0100
1000
0100
0011
1100
0010
0001
0100
,
1011
0001
0100
0010
1001
0100
0010
0001
0100
0002
0100
1010
0103
0010
0101
1000
,
0111
0010
1000
0010
0101
1000
0100
0001
1010
0101
0010
1100
0011
1000
0010
0100
,
1011
0100
2000
0100
0011
0100
3010
0100
1000
0100
0001
1100
0011
0100
1010
0100
,
1011
0100
1000
0010
0101
1010
0200
1001
0010
1301
0010
1100
0011
1000
0100
0001
,
2110
0001
0010
0100
0001
0100
0010
0001
0100
3001
0100
1010
0101
0010
0101
1000
,
0111
0020
1000
0100
1001
0000
1000
0001
0100
0031
1000
0110
1001
0100
0010
0001
,
2110
0001
0000
0001
0110
0001
3010
0001
1000
0001
0100
1001
0110
0001
1010
0001
,
1110
0001
0010
1100
0012
0100
0010
1000
0100
1000
0100
0010
1003
0100
1010
0101
,
1110
0001
1000
0001
2100
0010
0100
0001
0010
0001
0010
0100
0001
3010
0101
1010
,
1101
0010
1000
0001
1000
0100
0010
1000
1011
0100
0001
1000
0001
0100
0010
1000
,
1011
0100
0001
1000
0001
0100
0010
1000
1011
0100
0001
1000
0001
0100
0010
1000
,
1011
0100
0001
1000
0111
0100
0001
1000
0111
0100
0001
1000
0111
0100
0001
1000
,
0111
0100
1011
0010
1011
0001
1110
0010
1101
0100
1011
0010
1110
0010
1101
0010
,
1100
0010
0001
1000
0111
1000
0001
0100
1001
0010
1000
0100
0011
0100
0001
0010
,
2001
0100
0001
0010
0101
0100
0001
0010
0101
0010
0100
0000
0101
0010
3100
0001
,
1010
0100
1000
0010
1110
0001
0010
0100
1001
0110
1000
0010
0101
0010
0100
1000
,
0101
0010
0001
0010
1101
0010
0001
0010
1100
0011
0100
1010
1101
0010
0101
1000
,
0111
2011
0000
0010
0100
0011
0000
0010
0101
0010
0000
0010
0101
0010
3100
0010
,
1001
0010
0002
0100
1010
0100
0000
0100
1010
0100
0013
0100
0011
1000
0100
0001
,
2010
0001
0100
0000
0101
0010
0001
0100
0010
0001
0100
0000
0101
3010
0001
0100
,
0011
0100
1010
0001
0110
1000
0101
0010
1100
0011
1100
0011
1100
0011
1100
0011
,
1101
0010
0100
1000
0111
1000
0100
0001
1011
0100
0010
0001
0111
1000
0100
0001
,
1011
0100
0010
0001
0111
1000
0100
0001
1011
0100
0010
0001
0111
1000
0100
0001
,
1011
0100
0010
0001
1110
0001
0010
1000
0101
0010
0100
1000
0111
0001
0010
1000
,
1101
0010
0100
1000
0111
0001
0010
1000
1101
0010
0100
1000
0111
0001
1000
0100
,
1011
1000
0101
0010
0001
1000
0101
0010
0001
1000
0101
0010
0001
1000
0101
0010
,
0101
1000
0101
0010
0001
1000
0101
0010
0001
1000
0101
0010
0001
1000
0101
0010
,
1101
0001
1100
0010
0100
0001
1100
0010
0100
0001
1100
0010
1000
0001
1100
0010
,
1100
0001
1100
0010
0100
0001
1100
0010
0100
0001
1100
0001
0010
1000
0010
0100
,
1011
0100
0011
1000
0101
0010
1001
0110
1011
0100
0011
0100
1010
0100
1001
0110
,
1101
0010
1100
0001
1010
0100
1001
0110
1011
0100
1001
0010
0101
0010
1001
0110
,
1011
0100
0011
1000
0101
0010
1001
0110
1001
0010
1001
0100
1010
0100
1001
0110
,
1011
0100
0011
1000
0101
0010
1001
0100
1011
0010
1001
0100
1010
0001
1100
0010
,
1101
0010
0100
1000
0001
0010
0100
1000
0111
0010
0100
1000
0001
0010
0100
1000
,
0111
0010
0100
1000
0001
0010
0100
1000
0111
0010
0100
1000
0001
0010
0100
1000
,
0111
0010
0100
1000
0111
0010
0100
1000
0111
0010
0100
1000
0111
0010
0100
1000
,
0111
0100
1001
0010
1001
0010
0101
1000
0011
0100
1001
0010
0101
1000
0011
1100
,
1011
0100
0010
1000
0100
0010
1001
0100
0010
0100
0010
0001
0100
0010
0001
0100
,
1011
0001
0100
0010
0001
0010
1000
0001
0010
1100
0001
0110
0101
1100
0111
1100
,
1111
0100
1000
0001
1110
0001
0100
0010
1100
0001
0100
0001
1011
0100
0010
1000
,
0101
1000
0100
0010
0101
1000
0010
0001
1010
0100
0010
0001
1011
0100
0010
0001
,
2010
0001
0100
0001
0110
0001
0000
0001
0010
0001
3110
0001
1011
0100
0010
0001
,
1010
0100
0010
1000
0111
1000
0010
1000
0101
0010
0001
1010
1101
0010
1100
0001
,
1011
0100
0001
0010
1011
0100
0010
0001
0110
1000
0001
0100
0011
0100
0001
0010
,
1001
0100
0001
0010
0101
0010
0001
0100
1001
0010
0100
1000
0101
0010
0100
1000
,
1011
0100
0010
0001
1010
0001
0110
0001
1010
0001
1110
0001
1110
0001
1110
0001
,
1110
0111
1110
0111
1110
0111
1110
0111
1110
0111
1111
1111
1111
1111
1111
1111
,
2222
0000
0000
0000
,
0000
0000
0000
0000
,
0000
0000
0000
0000
,
3333
0000
0000
0000
;
